Скачать Зимняя Универсиада 2019. Церемония открытия (2019) HDTV 1080i через торрент

Зимняя Универсиада 2019. Церемония открытия (2019) HDTV 1080i
Сидов Пиров Скачали
2 0 119
Размер Файлы
10.08 GB
Оценка5.0 из 10
Голосов1
Наименование: Зимняя Универсиада 2019. Церемония открытия
Категория: Универсиада, спорт
Произведено: Россия, Первый канал HD
Комментаторы: Татьяна Тарасова и Александр Гришин
Спорт
Краткое описание: Впервые в истории зимняя Универсиада проходит в России! Зрителей ждёт трансляция из самого сердца Сибири. По словам режиссера-постановщика церемонии, Ильи Авербуха, праздничное представление сломает все стереотипы о России ...
  • Видео данные: H264, 9493 Кбит/с, 1920x1080
    Аудио данные 1: AC3, 6 ch, 384 Кбит/с
    Аудио данные 2: MP2, 2 ch, 224 Кбит/сек
    Перевод: Оригинал
    Продолжительность: 02:15:44
  • Зимняя Универсиада 2019. Церемония открытия (2019) HDTV 1080i Зимняя Универсиада 2019. Церемония открытия (2019) HDTV 1080i Зимняя Универсиада 2019. Церемония открытия (2019) HDTV 1080i
  • General
    ID : 1 (0x1)
    Complete name : G:\Церемония открытия зимней Универсиады 2019.ts
    Format : MPEG-TS
    File size : 10.1 GiB
    Duration : 2 h 15 min
    Overall bit rate mode : Variable
    Overall bit rate : 10.6 Mb/s

    Video
    ID : 2101 (0x835)
    Menu ID : 101 (0x65)
    Format : AVC
    Format/Info : Advanced Video Codec
    Format profile : High@L4
    Format settings : CABAC / 3 Ref Frames
    Format settings, CABAC : Yes
    Format settings, ReFrames : 3 frames
    Format settings, GOP : M=4, N=32
    Codec ID : 27
    Duration : 2 h 15 min
    Bit rate : 9 493 kb/s
    Width : 1 920 pixels
    Height : 1 080 pixels
    Display aspect ratio : 16:9
    Frame rate : 25.000 FPS
    Standard : Component
    Color space : YUV
    Chroma subsampling : 4:2:0
    Bit depth : 8 bits
    Scan type : Interlaced
    Scan type, store method : Separated fields
    Scan order : Top Field First
    Bits/(Pixel*Frame) : 0.183
    Stream size : 9.00 GiB (89%)
    Color range : Limited
    Color primaries : BT.709
    Transfer characteristics : BT.709
    Matrix coefficients : BT.709

    Audio #1
    ID : 3101 (0xC1D)
    Menu ID : 101 (0x65)
    Format : AC-3
    Format/Info : Audio Coding 3
    Codec ID : 6
    Duration : 2 h 15 min
    Bit rate mode : Constant
    Bit rate : 384 kb/s
    Channel(s) : 6 channels
    Channel positions : Front: L C R, Side: L R, LFE
    Sampling rate : 48.0 kHz
    Frame rate : 31.250 FPS (1536 SPF)
    Bit depth : 16 bits
    Compression mode : Lossy
    Stream size : 373 MiB (4%)
    Language : Russian
    Service kind : Complete Main

    Audio #2
    ID : 3102 (0xC1E)
    Menu ID : 101 (0x65)
    Format : MPEG Audio
    Format version : Version 1
    Format profile : Layer 2
    Codec ID : 3
    Duration : 2 h 15 min
    Bit rate mode : Constant
    Bit rate : 224 kb/s
    Channel(s) : 2 channels
    Sampling rate : 48.0 kHz
    Frame rate : 41.667 FPS (1152 SPF)
    Compression mode : Lossy
    Stream size : 217 MiB (2%)
    Language : Russian

    Text
    ID : 3103 (0xC1F)-888
    Menu ID : 101 (0x65)
    Format : Teletext Subtitle
    Language : Russian
    [свернуть]
    Скриншоты
6167592-03-2019, 22:39
Информация
Посетители, находящиеся в группе Гости, не могут оставлять комментарии к данной публикации.
© 2012-2019, admin@kinopad.club