Скачать Обитель зла: Последняя глава (2016) BDRip 1080p | 3D | HOU | Лицензия через торрент

Обитель зла: Последняя глава (2016) BDRip 1080p | 3D | HOU | Лицензия
Сидов Пиров Скачали
0 0 1613
Размер Файлы
9.60 GB
Оценка10.0 из 10
Голосов7
5.4 35413 5.6 75497
Наименование: Обитель зла: Последняя глава
Оригинальное наименование: Resident Evil: The Final Chapter
Произведено: Германия, Австралия, Канада, Франция
Категория: ужасы, фантастика, боевик, триллер
Режиссер постановщик: Пол У. С. Андерсон
В главных ролях: Милла Йовович, Руби Роуз, Эли Лартер, Иэн Глен, Уильям Леви, Шон Робертс, Рола, Оуэн Мэкен, Ли Джун-ги, Ever Anderson
3D фильмы
Краткое описание: Действия фильма разворачиваются с того момента, на котором закончилась предыдущая часть. После того как Вескер предал Элис в Вашингтоне, конец истории человечества стал еще ближе. Элис - последняя надежда на спасение мира. Она должна вернуться к точке отсчета, туда, где все и началось - город Раккун-Сити, где корпорация «Амбрелла» готовится к финальной атаке по тем, кому удалось выжить.
В гонке со временем Элис вооружится до зубов и объединится с друзьями и теми, кого не ожидала увидеть в роли своих союзников. Вместе они будут биться против армии мертвецов и новых чудовищных мутантов. Находясь под угрозой потери своих способностей и готовясь к неминуемой атаке корпорации, Элис столкнется с еще более трудными проблемами, а человечество тем временем будет находиться на грани гибели.
  • Видео данные: MPEG-4 AVC, 11200 Kбит/с, 1920x1080
    Аудио данные: Русский (AC3, 6 ch, 640 Кбит/с), украинский (AC3, 2 ch, 192 Кбит/с), английский (AC3, 6 ch, 640 Кбит/с)
    Продолжительность: 01:46:40
    Перевод: Дублированный [Лицензия ]
    Субтитры: Русские (форсированные и полные), украинские (полные), английские (полные)
  • Обитель зла: Последняя глава (2016) BDRip 1080p | 3D | HOU | Лицензия Обитель зла: Последняя глава (2016) BDRip 1080p | 3D | HOU | Лицензия Обитель зла: Последняя глава (2016) BDRip 1080p | 3D | HOU | Лицензия
  • General
    Unique ID : 174378649817126172894909429195774848538 (0x83301B38BC3C55C4A86589330B3F6E1A)
    Complete name : E:\ResidentEvil6(2016)3D-halfOU(Ash61)\ResidentEvil6(2016)3D-halfOU(Ash61).mkv
    Format : Matroska
    Format version : Version 2
    File size : 9.60 GiB
    Duration : 1h 46mn
    Overall bit rate : 12.9 Mbps
    Movie name : Обитель зла: Последняя глава / Resident Evil: The Final Chapter (2016) в 3Д
    Encoded date : UTC 2017-04-29 20:21:02
    Writing application : mkvmerge v5.8.0 ('No Sleep / Pillow') built on Sep 2 2012 15:37:04
    Writing library : libebml v1.2.3 + libmatroska v1.3.0

    Video
    ID : 1
    Format : AVC
    Format/Info : Advanced Video Codec
    Format profile : High@L4.1
    Format settings, CABAC : Yes
    Format settings, ReFrames : 4 frames
    Codec ID : V_MPEG4/ISO/AVC
    Duration : 1h 46mn
    Bit rate : 11.1 Mbps
    Width : 1 920 pixels
    Height : 1 080 pixels
    Display aspect ratio : 16:9
    Frame rate mode : Constant
    Frame rate : 23.976 fps
    Color space : YUV
    Chroma subsampling : 4:2:0
    Bit depth : 8 bits
    Scan type : Progressive
    Bits/(Pixel*Frame) : 0.224
    Stream size : 8.31 GiB (87%)
    Title : BDRip by Ash61 (с BD 3D Jap)
    Writing library : x264 core 146 r2538 121396c
    Encoding settings : cabac=1 / ref=4 / deblock=1:-3:-3 / analyse=0x3:0x113 / me=umh / subme=10 / psy=1 / psy_rd=1.00:0.00 / mixed_ref=1 / me_range=32 / chroma_me=1 / trellis=2 / 8x8dct=1 / cqm=0 / deadzone=21,11 / fast_pskip=1 / chroma_qp_offset=-2 / threads=12 / lookahead_threads=3 / sliced_threads=0 / nr=0 / decimate=1 / interlaced=0 / bluray_compat=0 / constrained_intra=0 / bframes=12 / b_pyramid=2 / b_adapt=2 / b_bias=0 / direct=3 / weightb=1 / open_gop=0 / weightp=2 / keyint=250 / keyint_min=23 / scenecut=40 / intra_refresh=0 / rc_lookahead=60 / rc=crf / mbtree=0 / crf=16.0 / qcomp=0.70 / qpmin=0 / qpmax=69 / qpstep=4 / vbv_maxrate=40000 / vbv_bufsize=30000 / crf_max=0.0 / nal_hrd=none / filler=0 / frame-packing=4 / ip_ratio=1.40 / pb_ratio=1.30 / aq=1:0.70
    Language : English
    Default : Yes
    Forced : No

    Audio #1
    ID : 2
    Format : AC-3
    Format/Info : Audio Coding 3
    Mode extension : CM (complete main)
    Format settings, Endianness : Big
    Codec ID : A_AC3
    Duration : 1h 46mn
    Bit rate mode : Constant
    Bit rate : 640 Kbps
    Channel(s) : 6 channels
    Channel positions : Front: L C R, Side: L R, LFE
    Sampling rate : 48.0 KHz
    Bit depth : 16 bits
    Compression mode : Lossy
    Stream size : 488 MiB (5%)
    Title : Дубляж - BD CEE
    Language : Russian
    Default : Yes
    Forced : No

    Audio #2
    ID : 3
    Format : AC-3
    Format/Info : Audio Coding 3
    Mode extension : CM (complete main)
    Format settings, Endianness : Big
    Codec ID : A_AC3
    Duration : 1h 46mn
    Bit rate mode : Constant
    Bit rate : 192 Kbps
    Channel(s) : 2 channels
    Channel positions : Front: L R
    Sampling rate : 48.0 KHz
    Bit depth : 16 bits
    Compression mode : Lossy
    Stream size : 147 MiB (1%)
    Title : Дубляж - iTunes
    Language : Ukrainian
    Default : No
    Forced : No

    Audio #3
    ID : 4
    Format : AC-3
    Format/Info : Audio Coding 3
    Mode extension : CM (complete main)
    Format settings, Endianness : Big
    Codec ID : A_AC3
    Duration : 1h 46mn
    Bit rate mode : Constant
    Bit rate : 640 Kbps
    Channel(s) : 6 channels
    Channel positions : Front: L C R, Side: L R, LFE
    Sampling rate : 48.0 KHz
    Bit depth : 16 bits
    Compression mode : Lossy
    Stream size : 488 MiB (5%)
    Title : Original - BD 3D Jap
    Language : English
    Default : No
    Forced : No

    Text #1
    ID : 5
    Format : UTF-8
    Codec ID : S_TEXT/UTF8
    Codec ID/Info : UTF-8 Plain Text
    Title : Форсированные (v.2 Ash61)
    Language : Russian
    Default : Yes
    Forced : No

    Text #2
    ID : 6
    Format : UTF-8
    Codec ID : S_TEXT/UTF8
    Codec ID/Info : UTF-8 Plain Text
    Title : Полные (iTunes)
    Language : Russian
    Default : No
    Forced : No

    Text #3
    ID : 7
    Format : UTF-8
    Codec ID : S_TEXT/UTF8
    Codec ID/Info : UTF-8 Plain Text
    Title : Форсированные (ver. Ash61)
    Language : Ukrainian
    Default : No
    Forced : No

    Text #4
    ID : 8
    Format : UTF-8
    Codec ID : S_TEXT/UTF8
    Codec ID/Info : UTF-8 Plain Text
    Title : Полные (iTunes)
    Language : Ukrainian
    Default : No
    Forced : No

    Text #5
    ID : 9
    Format : UTF-8
    Codec ID : S_TEXT/UTF8
    Codec ID/Info : UTF-8 Plain Text
    Title : Full
    Language : English
    Default : No
    Forced : No

    Menu
    00:00:00.000 : :1
    00:05:39.673 : :2
    00:11:18.177 : :3
    00:17:00.102 : :4
    00:22:36.146 : :5
    00:27:21.932 : :6
    00:33:38.475 : :7
    00:40:47.612 : :8
    00:46:36.127 : :9
    00:53:18.779 : :10
    01:03:18.670 : :11
    01:10:47.869 : :12
    01:15:37.575 : :13
    01:22:57.806 : :14
    01:28:32.891 : :15
    01:35:07.452 : :16
Alik29-04-2017, 23:54
Информация
Посетители, находящиеся в группе Гости, не могут оставлять комментарии к данной публикации.
© 2012-2019, admin@kinopad.club